fgt it great british bake off s09e10 blue my mind 2160p ethd The meg supergirl bohemian rhapsody last week tonight Jimi Hendrix 2018 ufc Survivor greys anatomy ita ita 2018 walking dead xxx vikings outlander Outlander S04E02 incredibles 2 NASCAR the walking dead s09e05 Hindi arrow ddr young sheldon bbc the good place evo Supergirl S04E05 Mars etrg supernatural FAMILY GUY ettv Blindspot The Predator the flash big bang theory español formula 1 the last ship doctor who S11E06 the big bang theory Z nation WWE south park mr robot ita 1080p YIFY venom dtone Game of Thrones ray donovan etmovies season the walking dead star trek DISCOVERY the walking dead s09e06 2018 movies 2018 ita walking dead s09e06 nfl van helsing American Horror Story Ncis big bang theory doctor who YOU 
Warning! Do not Download Without a VPN!
Your IP Address is .   Location is
Download and surf securely, stream unlimited and protect your personal data!
We strongly recommend using SpyOFF VPN!
Become Anonymous with SpyOFF
ETTV Recommended TV Shows
The.Good.Doctor.S02E07.HDTV.x264-KILLERS[ettv] torrent
Arrow.S07E05.HDTV.x264-SVA[ettv] torrent
DCs.Legends.of.Tomorrow.S04E04.HDTV.x264-SVA[ettv] torrent
Magnum.P.I.2018.S01E08.HDTV.x264-SVA[ettv] torrent

ETTV Recommended Xvid
The.Little.Witch.2018.HDRip.XviD.AC3-EVO torrent
Puzzle.2018.HDRip.XviD.AC3-EVO torrent
Alpha.Wolf.2018.HDRip.XviD.AC3-EVO torrent
American.Dresser.2018.BRRip.XViD-ETRG torrent

ETTV Recommended HD
Crazy.Rich.Asians.2018.1080p.BluRay.x264.DTS-HD.MA.5.1-HDChina[EtHD] torrent
Final.Score.2018.1080p.BluRay.x264.DTS-HDMA.5.1-DTOne torrent
The.Equalizer.2.2018.1080p.BluRay.x264.DTS-HD.MA.7.1-DTOne torrent
Kin.2018.BluRay.Multi.1080p.x264.DTS-HDMA.7.1-DTOne torrent

ETTV Recommended UHD
Cliffhanger.1993.Multi.2160p.UHD.BluRay.x265.HDR..DTS-5.11-DTOne torrent
Rambo-First.Blood.1982.Multi.2160p.UHD Bluray.x265.HDR.DTS.5.1-DTOne torrent
Rambo-First.Blood.Part.II.1985.Multi.2160p.UHD Bluray.x265.HDR..DTS.5.1-DTOne torrent
Rambo.III.1987.Multi.UHD.2160p.Bluray.x265.HDR.DTS.5.1-DTOne torrent

ETTV Recommended Cam
The.House.with.a.Clock.in.Its.Walls.2018.NEW HDCAM.XViD.AC3-ETRG torrent
Night School 2018 NEW 720p HD-TS-NiGGA torrent
The Grinch 2018.HDCAM.XViD.AC3-ETRG torrent
The Girl in the Spiders Web 2018.HDCAM.XViD.AC3-ETRG torrent

ETTV Recommended Foreign
Natsamrat (2016) Marathi 1080p NF WEB-DL DD 5.1 H.264-TeamSunny[EtHD] torrent
The Meg 2018 BRRip Dual Audio [Hindi 5.1+English] 720p x264 ESub - mkvCinemas torrent
Mitron (2018) Hindi 1080p WEB-Rip x264 AC3 DD5.1 - ESUB ~ Ranvijay torrent
Sui Dhaaga 2018 WebRip Hindi 720p x264 AAC 5.1 - mkvCinemas [Telly] torrent

Social


Download Torrent "Avengers Age of Ultron (2015) (1080p BluRay x265 HEVC 10bit AAC 7.1 Q22 Joy..."

IMDB Details
Description:

N/A

Genre:

N/A

Download Torrent (Magnet)
Download Torrent (File)
Seeds: 110
Leechers: 20
Completed: 3,161 
Last Checked: 25-09-2018 06:03:53


Loading...
Details
Title:Avengers Age of Ultron (2015) (1080p BluRay x265 HEVC 10bit AAC 7.1 Q22 Joy...
Description:





Media Information
General
Format                                   : Matroska
Format version                           : Version 4 / Version 2
File size                                : 3.31 GiB
Duration                                 : 2 h 21 min
Overall bit rate                         : 3 355 kb/s
Movie name                               : Avengers Age of Ultron 2015  (1080p x265 q22 FS99 Joy)[UTR]
Encoded date                             : UTC 2018-09-21 23:39:26
Writing application                      : mkvmerge v25.0.0 ('Prog Noir') 64-bit
Writing library                          : libebml v1.3.6 + libmatroska v1.4.9
Cover                                    : Yes
Attachments                              : cover.jpg
Writing frontend                         : StaxRip v1.8.2.0

Video
ID                                       : 1
Format                                   : HEVC
Format/Info                              : High Efficiency Video Coding
Format profile                           : Main [email protected]@Main
Codec ID                                 : V_MPEGH/ISO/HEVC
Duration                                 : 2 h 21 min
Bit rate                                 : 2 897 kb/s
Width                                    : 1 920 pixels
Height                                   : 800 pixels
Display aspect ratio                     : 2.40:1
Frame rate mode                          : Constant
Frame rate                               : 23.976 (24000/1001) FPS
Color space                              : YUV
Chroma subsampling                       : 4:2:0
Bit depth                                : 10 bits
Bits/(Pixel*Frame)                       : 0.079
Stream size                              : 2.86 GiB (86%)
Writing library                          : x265 2.8+19-bcdc610cf5f0:[Windows][MSVC 1914][64 bit] 10bit
Encoding settings                        : cpuid=1111039 / frame-threads=4 / numa-pools=16 / wpp / no-pmode / no-pme / no-psnr / ssim / log-level=2 / input-csp=1 / input-res=1920x800 / interlace=0 / total-frames=203273 / level-idc=0 / high-tier=1 / uhd-bd=0 / ref=4 / no-allow-non-conformance / no-repeat-headers / annexb / no-aud / no-hrd / info / hash=0 / no-temporal-layers / open-gop / min-keyint=23 / keyint=250 / gop-lookahead=0 / bframes=4 / b-adapt=2 / b-pyramid / bframe-bias=0 / rc-lookahead=25 / lookahead-slices=4 / scenecut=40 / radl=0 / no-intra-refresh / ctu=64 / min-cu-size=8 / rect / no-amp / max-tu-size=32 / tu-inter-depth=1 / tu-intra-depth=1 / limit-tu=0 / rdoq-level=2 / dynamic-rd=0.00 / ssim-rd / signhide / no-tskip / nr-intra=0 / nr-inter=0 / no-constrained-intra / strong-intra-smoothing / max-merge=3 / limit-refs=3 / limit-modes / me=3 / subme=3 / merange=57 / temporal-mvp / weightp / no-weightb / no-analyze-src-pics / deblock=-2:-2 / sao / sao-non-deblock / rd=4 / early-skip / rskip / no-fast-intra / no-tskip-fast / no-cu-lossless / no-b-intra / no-splitrd-skip / rdpenalty=0 / psy-rd=0.00 / psy-rdoq=1.00 / no-rd-refine / no-lossless / cbqpoffs=0 / crqpoffs=0 / rc=crf / crf=21.5 / qcomp=0.60 / qpstep=4 / stats-write=0 / stats-read=0 / ipratio=1.40 / pbratio=1.30 / aq-mode=3 / aq-strength=1.00 / cutree / zone-count=0 / no-strict-cbr / qg-size=32 / no-rc-grain / qpmax=69 / qpmin=0 / no-const-vbv / sar=0 / overscan=0 / videoformat=5 / range=0 / colorprim=2 / transfer=2 / colormatrix=2 / chromaloc=0 / display-window=0 / max-cll=0,0 / min-luma=0 / max-luma=1023 / log2-max-poc-lsb=8 / vui-timing-info / vui-hrd-info / slices=1 / no-opt-qp-pps / no-opt-ref-list-length-pps / no-multi-pass-opt-rps / scenecut-bias=0.05 / no-opt-cu-delta-qp / no-aq-motion / no-hdr / no-hdr-opt / no-dhdr10-opt / no-idr-recovery-sei / analysis-reuse-level=5 / scale-factor=0 / refine-intra=0 / refine-inter=0 / refine-mv=0 / no-limit-sao / ctu-info=0 / no-lowpass-dct / refine-mv-type=0 / copy-pic=1 / max-ausize-factor=1.0 / no-dynamic-refine / no-single-sei
Default                                  : Yes
Forced                                   : No

Audio
ID                                       : 2
Format                                   : AAC
Format/Info                              : Advanced Audio Codec
Format profile                           : LC
Codec ID                                 : A_AAC
Duration                                 : 2 h 21 min
Bit rate                                 : 411 kb/s
Channel(s)                               : 7 channels
Channel(s)_Original                      : 8 channels
Channel positions                        : Front: L C R, Side: L R, Back: L R, LFE
Sampling rate                            : 48.0 kHz
Frame rate                               : 46.875 FPS (1024 spf)
Compression mode                         : Lossy
Delay relative to video                  : 9 ms
Stream size                              : 416 MiB (12%)
Language                                 : English
Default                                  : No
Forced                                   : No

Subtitle #1
ID                                       : 3
Format                                   : PGS
Muxing mode                              : zlib
Codec ID                                 : S_HDMV/PGS
Codec ID/Info                            : Picture based subtitle format used on BDs/HD-DVDs
Duration                                 : 2 h 12 min
Bit rate                                 : 40.6 kb/s
Count of elements                        : 4314
Stream size                              : 38.6 MiB (1%)
Language                                 : English
Default                                  : No
Forced                                   : No

Subtitle #2
ID                                       : 4
Format                                   : UTF-8
Codec ID                                 : S_TEXT/UTF8
Codec ID/Info                            : UTF-8 Plain Text
Duration                                 : 2 h 12 min
Bit rate                                 : 56 b/s
Count of elements                        : 1883
Stream size                              : 55.2 KiB (0%)
Language                                 : English
Default                                  : No
Forced                                   : No

Subtitle #3
ID                                       : 5
Format                                   : VobSub
Muxing mode                              : zlib
Codec ID                                 : S_VOBSUB
Codec ID/Info                            : Picture based subtitle format used on DVDs
Duration                                 : 2 h 20 min
Bit rate                                 : 9 237 b/s
Count of elements                        : 1884
Stream size                              : 9.28 MiB (0%)
Language                                 : French
Default                                  : No
Forced                                   : No

Subtitle #4
ID                                       : 6
Format                                   : VobSub
Muxing mode                              : zlib
Codec ID                                 : S_VOBSUB
Codec ID/Info                            : Picture based subtitle format used on DVDs
Duration                                 : 2 h 20 min
Bit rate                                 : 8 664 b/s
Count of elements                        : 1878
Stream size                              : 8.70 MiB (0%)
Language                                 : Spanish
Default                                  : No
Forced                                   : No

Subtitle #5
ID                                       : 7
Format                                   : VobSub
Muxing mode                              : zlib
Codec ID                                 : S_VOBSUB
Codec ID/Info                            : Picture based subtitle format used on DVDs
Duration                                 : 2 h 20 min
Bit rate                                 : 5 817 b/s
Count of elements                        : 1677
Stream size                              : 5.85 MiB (0%)
Language                                 : Japanese
Default                                  : No
Forced                                   : No

Subtitle #6
ID                                       : 8
Format                                   : VobSub
Muxing mode                              : zlib
Codec ID                                 : S_VOBSUB
Codec ID/Info                            : Picture based subtitle format used on DVDs
Duration                                 : 2 h 20 min
Bit rate                                 : 5 204 b/s
Count of elements                        : 1881
Stream size                              : 5.23 MiB (0%)
Language                                 : Chinese
Default                                  : No
Forced                                   : No

Subtitle #7
ID                                       : 9
Format                                   : VobSub
Muxing mode                              : zlib
Codec ID                                 : S_VOBSUB
Codec ID/Info                            : Picture based subtitle format used on DVDs
Duration                                 : 2 h 20 min
Bit rate                                 : 5 869 b/s
Count of elements                        : 1883
Stream size                              : 5.90 MiB (0%)
Language                                 : Korean
Default                                  : No
Forced                                   : No

Subtitle #8
ID                                       : 10
Format                                   : VobSub
Muxing mode                              : zlib
Codec ID                                 : S_VOBSUB
Codec ID/Info                            : Picture based subtitle format used on DVDs
Duration                                 : 2 h 20 min
Bit rate                                 : 5 912 b/s
Count of elements                        : 1915
Stream size                              : 5.94 MiB (0%)
Language                                 : Chinese
Default                                  : No
Forced                                   : No

Subtitle #9
ID                                       : 11
Format                                   : UTF-8
Codec ID                                 : S_TEXT/UTF8
Codec ID/Info                            : UTF-8 Plain Text
Duration                                 : 2 h 12 min
Bit rate                                 : 84 b/s
Count of elements                        : 1899
Stream size                              : 82.0 KiB (0%)
Language                                 : Arabic
Default                                  : No
Forced                                   : No

Subtitle #10
ID                                       : 12
Format                                   : UTF-8
Codec ID                                 : S_TEXT/UTF8
Codec ID/Info                            : UTF-8 Plain Text
Duration                                 : 2 h 20 min
Bit rate                                 : 14 b/s
Count of elements                        : 1661
Stream size                              : 14.9 KiB (0%)
Language                                 : Chinese
Default                                  : No
Forced                                   : No

Subtitle #11
ID                                       : 13
Format                                   : UTF-8
Codec ID                                 : S_TEXT/UTF8
Codec ID/Info                            : UTF-8 Plain Text
Duration                                 : 2 h 21 min
Bit rate                                 : 50 b/s
Count of elements                        : 1558
Stream size                              : 52.2 KiB (0%)
Language                                 : Danish
Default                                  : No
Forced                                   : No

Subtitle #12
ID                                       : 14
Format                                   : UTF-8
Codec ID                                 : S_TEXT/UTF8
Codec ID/Info                            : UTF-8 Plain Text
Duration                                 : 2 h 13 min
Bit rate                                 : 98 b/s
Count of elements                        : 1891
Stream size                              : 95.9 KiB (0%)
Language                                 : Persian
Default                                  : No
Forced                                   : No

Subtitle #13
ID                                       : 15
Format                                   : UTF-8
Codec ID                                 : S_TEXT/UTF8
Codec ID/Info                            : UTF-8 Plain Text
Duration                                 : 2 h 20 min
Bit rate                                 : 75 b/s
Count of elements                        : 1511
Stream size                              : 77.5 KiB (0%)
Language                                 : Hebrew
Default                                  : No
Forced                                   : No

Subtitle #14
ID                                       : 16
Format                                   : UTF-8
Codec ID                                 : S_TEXT/UTF8
Codec ID/Info                            : UTF-8 Plain Text
Duration                                 : 2 h 12 min
Bit rate                                 : 56 b/s
Count of elements                        : 1878
Stream size                              : 54.8 KiB (0%)
Language                                 : Italian
Default                                  : No
Forced                                   : No

Subtitle #15
ID                                       : 17
Format                                   : UTF-8
Codec ID                                 : S_TEXT/UTF8
Codec ID/Info                            : UTF-8 Plain Text
Duration                                 : 2 h 20 min
Bit rate                                 : 52 b/s
Count of elements                        : 1878
Stream size                              : 53.7 KiB (0%)
Language                                 : Norwegian
Default                                  : No
Forced                                   : No

Subtitle #16
ID                                       : 18
Format                                   : UTF-8
Codec ID                                 : S_TEXT/UTF8
Codec ID/Info                            : UTF-8 Plain Text
Duration                                 : 2 h 20 min
Bit rate                                 : 84 b/s
Count of elements                        : 1881
Stream size                              : 86.7 KiB (0%)
Language                                 : Russian
Default                                  : No
Forced                                   : No

Subtitle #17
ID                                       : 19
Format                                   : UTF-8
Codec ID                                 : S_TEXT/UTF8
Codec ID/Info                            : UTF-8 Plain Text
Duration                                 : 2 h 20 min
Bit rate                                 : 46 b/s
Count of elements                        : 1131
Stream size                              : 47.4 KiB (0%)
Language                                 : Swedish
Default                                  : No
Forced                                   : No

Subtitle #18
ID                                       : 20
Format                                   : UTF-8
Codec ID                                 : S_TEXT/UTF8
Codec ID/Info                            : UTF-8 Plain Text
Duration                                 : 2 h 13 min
Bit rate                                 : 125 b/s
Count of elements                        : 1783
Stream size                              : 123 KiB (0%)
Language                                 : Thai
Default                                  : No
Forced                                   : No

Subtitle #19
ID                                       : 21
Format                                   : UTF-8
Codec ID                                 : S_TEXT/UTF8
Codec ID/Info                            : UTF-8 Plain Text
Duration                                 : 2 h 13 min
Bit rate                                 : 85 b/s
Count of elements                        : 1783
Stream size                              : 83.8 KiB (0%)
Language                                 : Vietnamese
Default                                  : No
Forced                                   : No

Menu
00:00:00.000                             : en:Chapter 1
00:12:15.192                             : en:Chapter 2
00:21:23.949                             : en:Chapter 3
00:33:01.771                             : en:Chapter 4
00:36:07.623                             : en:Chapter 5
00:42:00.768                             : en:Chapter 6
00:52:44.744                             : en:Chapter 7
00:59:01.871                             : en:Chapter 8
01:15:51.088                             : en:Chapter 9
01:27:08.598                             : en:Chapter 10
01:36:44.757                             : en:Chapter 11
01:54:35.326                             : en:Chapter 12
02:06:27.580                             : en:Chapter 13
02:11:08.026                             : en:Chapter 14

Source Information
Release: Avengers.Age.of.Ultron.2015.2160p.BluRay.x265.10bit.SDR.DTS-HD.MA.TrueHD.7.1.Atmos-SWTYBLZ  (28.4 GB)



UTR wrote:

Note From UTR
We have no issue with individuals posting or re-uploading our torrents on a platform we aren't on. However, if this is something you'd like to do, please do so in a 'as-is' format. We ask that you do not create a new torrent, include all descriptions you see above including the UTR logo, tags, notes and screenshots. If you'd like to become a permanent poster on a website we don't post to, feel free to get in contact with a UniTeam member.

If possible please donate: BTC 1QA5fum5AyXvWzdVCkQzUNvw3Ef15fHRaR


Category:Movies > HEVC/x265
Lang:English  English
Total Size:3.64 GB
Info Hash:6054d71ce530d4f98f9380bf2a256a8ad08b8459
Added By:UTR
Date Added:25-09-2018 06:03:50

Files

File List: 
 File Size
Avengers Age of Ultron 2015 (1080p x265 q22 FS99 Joy).mkv3.31 GB
Encoded by JoyBell (UTR).txt2.73 kB
Extras/4 Deleted Scenes.mkv66 MB
Extras/Audi Product Placement.mkv11 MB
Extras/Bloopers.mkv19 MB
Extras/Deleted Scene - The Norns.mkv20 MB
Extras/Deleted Scene - Ultrons Out.mkv16 MB
Extras/Extended Scene - Romanoff and Banner.mkv23 MB
Extras/From the Inside Out.mkv124 MB
Extras/On Location.mkv17 MB
Extras/The Infinity Stones.mkv44 MB
folder.jpg16.38 kB
How to play HEVC (THIS FILE).txt3.42 kB
Ninite K-Lite Codecs Unattended Silent Installer and Updater.website561.00 B



Loading...
Comments

<< Previous      Next >>
1 - 1

[Report] Posted: 25-09-2018 at 09:59:11
drstrange


does it come in 2160p?

1 - 1
<< Previous      Next >>


Disclaimer: None of the files shown here are actually hosted or transmitted by this server. The links are provided solely by this site's users. The site moderation is also a service provided by the site's users. The administrator of this site (ettv.tv) cannot be held responsible for what its users post, or any other actions of its users. You may not use this site to distribute or download any material when you do not have the legal rights to do so. It is your own responsibility to adhere to these terms.

Sitemap